Gentoo Forums
Gentoo Forums
Gentoo Forums
Quick Search: in
.TOC and CUE files no longer handled appropriately! :(
View unanswered posts
View posts from last 24 hours

 
Reply to topic    Gentoo Forums Forum Index Multimedia
View previous topic :: View next topic  
Author Message
vexatious
n00b
n00b


Joined: 24 Aug 2010
Posts: 50

PostPosted: Wed Aug 07, 2013 9:52 pm    Post subject: .TOC and CUE files no longer handled appropriately! :( Reply with quote

.TOC and CUE files no longer work appropriately! If I use gcdemu to load a CD_XA TOC (audio and data), all the tracks become recognized as audio. This phenomenon happens with cdrdao too. If I do
Code:
cdrdao write --driver generic-mmc-raw --device /dev/sr1 "Jet Moto 2 (U) (U).TOC"
it clearly shows the first track being burned as audio which isn't right:
Code:
Cdrdao version 1.2.3 - (C) Andreas Mueller <andreas@daneb.de>
/dev/sr1: Memorex DVD+-RAM 530L v1   Rev: 5M64
Using driver: Generic SCSI-3/MMC (raw writing) - Version 2.0 (options 0x0000)

Starting write at speed 10...
Pausing 10 seconds - hit CTRL-C to abort.
Process can be aborted with QUIT signal (usually CTRL-\).
Turning BURN-Proof on
Enabling JustSpeed.
Using 16 byte P-Q sub-channel data mode.
Executing power calibration...
Power calibration successful.
WARNING: No super user permission to setup real time scheduling.
Writing lead-in and gap...
Writing track 01 (mode MODE2_RAW/AUDIO )...
Writing track 02 (mode AUDIO/AUDIO )....
Writing track 03 (mode AUDIO/AUDIO )....
Writing track 04 (mode AUDIO/AUDIO )....
Writing track 05 (mode AUDIO/AUDIO )....
Writing track 06 (mode AUDIO/AUDIO )....

etc


This never happened before and everything worked fine. Started getting oversized cd warnings later when burning to CDRW and now I can't use my own backups at all.

Is there some kind of cache getting garbage and being re-used that I don't know about?

This is what one of my toc files look like
Code:
CD_ROM_XA


// Track 1
TRACK MODE2_RAW
NO COPY
DATAFILE "temp01.iso" 13:11:14


// Track 2
TRACK AUDIO
NO COPY
NO PRE_EMPHASIS
TWO_CHANNEL_AUDIO
SILENCE 00:02:00
AUDIOFILE "Jet Moto 2 (U) (U).wav" 0 03:01:30
START 00:02:00


// Track 3
TRACK AUDIO
NO COPY
NO PRE_EMPHASIS
TWO_CHANNEL_AUDIO
AUDIOFILE "Jet Moto 2 (U) (U).wav" 03:01:30 03:00:10
START 00:02:00


// Track 4
TRACK AUDIO
NO COPY
NO PRE_EMPHASIS
TWO_CHANNEL_AUDIO
AUDIOFILE "Jet Moto 2 (U) (U).wav" 06:01:40 02:32:44
START 00:02:00


// Track 5
TRACK AUDIO
NO COPY
NO PRE_EMPHASIS
TWO_CHANNEL_AUDIO
AUDIOFILE "Jet Moto 2 (U) (U).wav" 08:34:09 02:54:06
START 00:02:00


// Track 6
TRACK AUDIO
NO COPY
NO PRE_EMPHASIS
TWO_CHANNEL_AUDIO
AUDIOFILE "Jet Moto 2 (U) (U).wav" 11:28:15 02:51:51
START 00:02:00


// Track 7
TRACK AUDIO
NO COPY
NO PRE_EMPHASIS
TWO_CHANNEL_AUDIO
AUDIOFILE "Jet Moto 2 (U) (U).wav" 14:19:66 03:00:13
START 00:02:00


// Track 8
TRACK AUDIO
NO COPY
NO PRE_EMPHASIS
TWO_CHANNEL_AUDIO
AUDIOFILE "Jet Moto 2 (U) (U).wav" 17:20:04 02:49:18
START 00:02:00


// Track 9
TRACK AUDIO
NO COPY
NO PRE_EMPHASIS
TWO_CHANNEL_AUDIO
AUDIOFILE "Jet Moto 2 (U) (U).wav" 20:09:22 02:50:19
START 00:02:00


// Track 10
TRACK AUDIO
NO COPY
NO PRE_EMPHASIS
TWO_CHANNEL_AUDIO
AUDIOFILE "Jet Moto 2 (U) (U).wav" 22:59:41 02:50:57
START 00:02:00


// Track 11
TRACK AUDIO
NO COPY
NO PRE_EMPHASIS
TWO_CHANNEL_AUDIO
AUDIOFILE "Jet Moto 2 (U) (U).wav" 25:50:23 01:38:05
START 00:02:00


// Track 12
TRACK AUDIO
NO COPY
NO PRE_EMPHASIS
TWO_CHANNEL_AUDIO
AUDIOFILE "Jet Moto 2 (U) (U).wav" 27:28:28 01:41:23
START 00:02:00


// Track 13
TRACK AUDIO
NO COPY
NO PRE_EMPHASIS
TWO_CHANNEL_AUDIO
AUDIOFILE "Jet Moto 2 (U) (U).wav" 29:09:51 02:52:42
START 00:02:00


// Track 14
TRACK AUDIO
NO COPY
NO PRE_EMPHASIS
TWO_CHANNEL_AUDIO
AUDIOFILE "Jet Moto 2 (U) (U).wav" 32:02:18 03:04:20
START 00:02:00


// Track 15
TRACK AUDIO
NO COPY
NO PRE_EMPHASIS
TWO_CHANNEL_AUDIO
AUDIOFILE "Jet Moto 2 (U) (U).wav" 35:06:38 03:01:35
START 00:02:00


// Track 16
TRACK AUDIO
NO COPY
NO PRE_EMPHASIS
TWO_CHANNEL_AUDIO
AUDIOFILE "Jet Moto 2 (U) (U).wav" 38:07:73 03:02:26
START 00:02:00


// Track 17
TRACK AUDIO
NO COPY
NO PRE_EMPHASIS
TWO_CHANNEL_AUDIO
AUDIOFILE "Jet Moto 2 (U) (U).wav" 41:10:24 03:01:35
START 00:02:00



Any help is greatly appreciated!
_________________
Gentoo
Slackware
Back to top
View user's profile Send private message
vexatious
n00b
n00b


Joined: 24 Aug 2010
Posts: 50

PostPosted: Thu Aug 08, 2013 12:48 am    Post subject: Reply with quote

Just figured out pcsxr (PCSX Reloaded) emulator has the same problem... Tried cue sheets that worked before in the same emulator (was working fine last month) and same problem; come to think of it, it was getting segmentation faults after loading character selection screen on Jet Moto 2, a little before the CUE and TOC file issues happened. No problems like this using yabause however... Damn this is strange. This has to be a bad library, borken linkage or similar.

So can someone tell me what cdemu (gcdemu), cdrdao and pcsxr have in common?
_________________
Gentoo
Slackware
Back to top
View user's profile Send private message
Display posts from previous:   
Reply to topic    Gentoo Forums Forum Index Multimedia All times are GMT
Page 1 of 1

 
Jump to:  
You cannot post new topics in this forum
You cannot reply to topics in this forum
You cannot edit your posts in this forum
You cannot delete your posts in this forum
You cannot vote in polls in this forum